<svg enable-background="new 0 0 640 365" viewBox="0 0 640 365" xmlns="http://www.w3.org/2000/svg"><font horiz-adv-x="1000"><font-face underline-position="-166" underline-thickness="66"/><missing-glyph d="M776 897l-303 0-15-461M71-228l304 0 14 461M63-135l330 476 14 469M785 806l-330-478-15-469M-63-290l455 1250 519 0-455-1250z" horiz-adv-x="603"/><glyph horiz-adv-x="242" unicode="&#x20;"/><glyph d="M336 182C243 175 188 172 173 172 158 172 145 174 135 177 118 177 106 184 99 197 86 214 97 225 132 231l18 2C192 242 234 247 276 247 317 247 344 241 357 229 369 217 372 206 367 195 361 184 351 179 336 182z" horiz-adv-x="326" unicode="&#x2d;"/><glyph d="M375 536l29-5C413 532 426 525 444 512 462 499 474 485 480 472 503 437 497 394 463 343 456 334 435 312 402 275 368 238 348 216 341 211 336 208 324 199 307 182 290 165 274 148 260 132 246 116 239 107 239 106 240 105 245 106 255 110 264 113 274 117 285 121 296 124 317 128 349 133 381 138 399 138 404 135l5-2C412 137 420 138 434 137 448 136 463 133 478 128 493 123 501 118 501 111 503 106 507 101 512 95 524 85 524 75 512 66 500 57 482 54 457 59 440 59 428 59 422 58 416 57 399 55 372 53 353 56 331 53 307 44 283 35 254 27 221 18 188 9 169 6 164 8 159 9 150 16 139 29 128 41 121 49 119 54 116 59 116 66 119 75 121 84 123 88 126 88 129 85 133 91 139 104 145 117 148 125 149 127 150 129 154 133 163 139 163 140 168 146 179 158 189 170 198 180 206 187 275 254 311 293 314 306 317 310 323 314 330 319 337 324 345 330 354 339 356 349 365 362 381 378 392 395 400 409 403 420 406 431 407 437 404 439 401 441 392 444 376 449 360 455 345 456 331 452 317 448 298 438 275 422 270 421 265 419 258 416 243 411 235 409 232 410 229 411 227 412 225 415 223 417 221 420 218 424 215 427 212 430 210 432l-10 43 31 17C293 532 341 547 375 536z" horiz-adv-x="450" unicode="&#x32;"/><glyph d="M454 323l2 0C458 329 463 363 472 424 481 485 485 527 486 548l-3 50C477 598 463 582 442 551 421 519 400 483 380 443 365 416 354 402 348 402 343 397 333 382 318 355 303 328 297 314 300 311 327 316 348 319 365 320 408 331 434 335 445 330 448 325 451 323 454 323M415 663C430 683 446 693 464 693 481 693 501 685 522 669 550 649 565 629 568 610 569 606 569 600 569 593 569 586 569 578 569 571 568 564 568 554 567 543 566 532 565 522 564 514 563 505 562 494 561 480 560 466 559 454 558 443 557 432 553 392 546 322 531 178 526 76 529 15 530 10 530 4 529-3 528-10 528-14 528-15 522-22 507-23 482-19 457-15 444-8 442 1 439 4 437 7 437 10l9 233-13-1C420 242 392 239 349 234 306 229 278 224 267 221 253 221 238 207 222 178 218 168 213 158 207 147 200 136 197 129 197 128l-16-19C181 102 175 83 162 53 149 22 136-3 123-22l-27-38-35 27C50-28 44-22 42-15 40-9 42 1 48 15 53 28 62 47 75 71 87 94 96 112 102 124 131 179 145 219 145 245 142 255 147 263 160 269 161 270 165 273 172 278 191 292 204 305 211 318 225 351 259 413 313 504 345 563 379 616 415 663z" horiz-adv-x="511" unicode="&#x41;"/><glyph d="M354 532C353 527 349 520 342 512 342 511 340 507 336 500 321 473 310 449 303 429 283 382 273 353 273 343 314 351 342 358 356 363 373 373 385 381 390 386 432 425 461 461 478 492 493 515 501 533 503 544 504 555 501 565 492 573 483 583 470 590 451 593 432 596 413 596 396 591 379 586 370 578 370 566 370 554 365 543 354 532M382 673C383 673 386 673 392 674 408 675 423 676 436 675 483 671 521 658 548 635 575 612 589 578 588 533 587 516 577 492 559 462 541 432 519 405 493 382 467 359 448 344 437 339 438 338 450 334 474 325 526 306 559 269 572 215 579 186 571 147 550 98l-15-22C534 73 528 63 517 46 506 28 496 14 487 3 443-34 407-58 378-69 351-81 319-87 282-88 245-89 218-83 201-72 172-54 155-35 150-16 145 3 151 18 170 29 174 32 182 32 194 30 206 27 215 23 220 18 245-5 281-11 328 1 354 9 375 19 390 31 405 43 422 62 443 87 462 113 474 139 479 166 484 192 481 210 470 220 435 269 382 285 311 266 298 264 285 262 272 259 259 256 250 254 245 253 240 252 237 251 237 249 236 247 233 241 228 231 221 218 206 178 182 109 157 40 138 4 124 3 117 2 108 10 97 25 96 26 94 31 89 38 84 45 81 51 79 56 77 61 76 65 76 68 75 75 76 83 81 92 86 100 91 114 96 134 105 160 130 225 172 328 213 431 244 506 264 551 284 596 291 620 284 622 284 624 283 627 281 631 279 635 278 638 279 640 279 644 291 650 315 658 338 666 354 669 363 668 376 668 382 670 382 673z" horiz-adv-x="521" unicode="&#x42;"/><glyph d="M356 56C403 75 434 92 450 107 467 120 481 126 492 126 501 129 508 126 513 118 518 110 520 100 520 89 520 77 514 65 501 52 488 39 473 27 456 17 449 10 432 1 407-9 382-27 353-42 320-55 287-68 258-71 235-66 182-47 149-20 136 15 123 50 117 92 118 141 118 200 128 257 149 310 150 311 154 323 163 344 172 365 178 378 181 385 192 411 212 445 241 486 278 543 307 582 328 603 348 624 381 650 426 681 441 692 460 699 483 702 505 705 527 701 550 690 573 679 589 661 599 636 614 609 613 570 597 518 581 465 559 426 531 400 511 387 488 393 461 417 453 432 450 439 451 440 452 441 454 441 455 441 461 448 470 463 482 484 493 505 500 520 503 529 506 538 508 547 510 554 511 561 512 567 513 571 514 575 514 579 515 584 516 588 516 591 517 593 517 595 517 597 516 600 516 603 514 607 509 612 504 617 493 614 474 604 441 590 402 552 357 491 299 415 263 356 249 313l-11-26C240 276 236 261 226 241 215 194 211 151 214 112 217 63 229 35 250 27 253 26 257 25 262 26 266 26 270 26 274 26 277 26 282 27 288 29 293 31 298 33 303 34 307 35 313 37 320 40 327 43 333 45 337 47 341 49 347 52 356 56z" horiz-adv-x="491" unicode="&#x43;"/><glyph d="M181-6C180-9 180-12 180-15 192-20 202-22 211-21 220-20 232-19 247-18 282-17 305-12 316-3 353 21 388 47 421 76 422 79 429 83 442 88 445 91 456 102 473 120 490 137 499 147 502 149 503 152 504 157 506 163 507 168 508 172 508 175 516 184 528 205 544 238 560 271 571 299 577 323 601 428 579 509 512 567 498 579 475 592 444 606 412 620 394 627 391 626 387 625 379 609 368 580 357 550 341 506 320 448 299 389 284 347 275 321 272 310 268 297 263 282 251 247 245 227 245 224 226 194 211 143 202 72 201 66 199 60 198 53 196 46 195 41 194 36 193 31 192 27 191 22 190 17 189 13 188 10 187 7 186 4 185 1 184-4 182-6 181-6M496 679C531 666 566 640 603 603 640 566 663 526 673 485 677 470 680 452 682 429 683 406 682 391 677 382 672 373 673 367 679 365 678 362 675 354 671 339 666 324 663 314 661 309 659 285 651 256 638 221 624 186 611 158 599 137 595 136 593 135 592 133 592 130 588 123 581 114 579 113 575 108 569 100 562 91 558 86 555 84 554 79 552 76 549 73 546 70 543 68 540 68 540 66 539 65 537 64 525 47 501 23 466-7 430-38 400-58 375-68 372-71 358-78 333-89 329-93 310-96 275-99 240-102 219-105 212-106 187-110 152-106 108-94 98-92 91-88 86-83 81-78 79-74 78-73 77-72 75-70 72-65 69-61 66-58 64-56 53-41 49-24 52-4 55 16 65 27 82 30 87 31 93 29 101 26 101 45 103 62 107 77 111 92 125 134 148 203 171 272 190 330 204 377 217 424 229 458 240 478 241 481 244 489 247 501 255 530 265 559 276 588l7 33-11 5C260 622 251 622 245 626 239 624 231 627 221 636 210 645 204 652 203 659l-3 17C201 684 222 693 261 702 300 711 336 714 370 711 403 708 445 697 496 679z" horiz-adv-x="587" unicode="&#x44;"/><glyph d="M580 155l-26-89C539-5 531-49 531-66 512-68 498-65 488-57 477-50 471-46 468-45 443-31 438-9 453 22 454 25 464 59 481 124 485 135 491 153 498 176 515 233 524 262 526 264l0 10C526 277 504 279 461 279 417 278 377 276 340 271l-86 0C251 264 241 235 225 184 209 133 196 84 187 39 178-7 166-50 153-91 128-82 111-78 104-78 94-75 87-69 82-60 77-51 75-42 78-31 83-26 86-13 86 7 89 14 93 28 98 50 102 71 114 117 133 186 152 255 164 292 169 297l0 11C169 318 173 328 180 339 187 359 190 373 190 380 190 380 209 427 248 521l0 5C249 527 258 545 273 580 288 614 302 643 313 668 324 693 330 706 330 708 339 719 349 722 360 718 377 711 391 698 402 677l10-16-37-72C349 543 336 517 336 511 325 482 317 459 312 441 306 423 300 408 295 396 290 383 286 374 283 368 280 361 278 357 278 356 278 358 295 359 328 360 435 361 495 362 508 364l52 5C595 482 619 555 630 588 641 620 652 643 664 657 676 670 687 677 696 677 699 677 706 673 717 666 728 658 734 651 736 646 751 632 750 611 731 584 720 565 711 544 703 519 694 494 689 479 686 474 686 460 684 451 679 446 674 441 669 431 662 415 655 398 652 386 652 378 652 369 649 362 642 355 612 251 591 184 580 155z" horiz-adv-x="573" unicode="&#x48;"/><glyph d="M181-41C172-29 147-24 105-26 91-28 77-26 63-19 48-12 42-5 45 4 46 13 56 22 75 31 94 40 116 44 143 45l42 1C194 63 200 78 203 91 206 104 208 115 211 124 213 132 219 151 228 180 250 248 262 289 265 302 275 323 286 359 298 409 329 502 341 550 336 552 329 553 312 552 283 549 254 546 238 543 235 541 232 536 226 537 218 543 210 549 205 556 203 563 200 578 202 587 209 591 216 597 233 604 261 611 288 618 315 624 341 627 366 630 386 637 399 648 413 653 425 655 434 654 442 649 465 647 503 650 564 656 600 647 611 624 614 611 614 601 609 593 604 584 596 580 585 581 573 578 551 576 518 575 474 571 450 566 447 561 445 559 443 556 440 552 437 548 435 545 434 544 435 538 431 524 424 501 416 478 408 454 400 428 379 363 366 325 361 316 360 313 335 224 285 47 302 48 329 51 367 55 404 58 424 59 427 57 430 55 432 50 435 43 448 25 447 10 432-2 417-14 391-20 354-19 301-21 269-23 257-24 245-26 239-30 239-37 239-44 236-49 230-53 224-57 216-58 207-56 197-54 188-49 181-41z" horiz-adv-x="409" unicode="&#x49;"/><glyph d="M260 302l-1-20C259 281 260 279 261 276 262 273 271 273 287 276 328 283 373 301 420 330 435 340 452 358 472 383 509 445 525 490 518 517 511 552 492 575 460 586 431 591 408 592 392 589 381 586 374 581 370 576 365 570 359 557 351 537 330 496 316 467 309 449 294 398 283 361 274 338 265 315 260 303 260 302M125 185l5 33C138 218 145 232 152 259 153 265 155 271 157 278 161 291 163 299 164 302 169 319 178 341 191 367 211 441 230 497 247 535 250 542 253 549 256 556 259 563 261 569 262 573 263 576 265 580 266 583 267 588 267 592 264 595 258 598 256 606 258 621 259 635 265 647 276 656 293 675 330 683 389 678 397 677 418 677 453 677 457 675 464 672 474 668 497 659 509 654 509 651 509 646 513 643 522 642 530 641 543 632 562 614 605 573 623 532 616 489 613 462 609 446 604 439 593 431 588 424 588 418 588 411 578 393 559 362 526 309 488 269 446 242 418 229 387 218 352 209 317 200 290 195 272 196 271 196 264 195 251 193 238 191 229 187 226 182 213 152 207 133 207 124 203 117 195 94 183 57 170 20 162-9 157-29 154-38 149-44 141-49 133-54 125-57 118-57 111-57 104-53 99-44 92-38 88-32 85-25 82-19 81-5 83 18 84 41 91 69 103 104 106 118 110 131 114 144 121 167 125 181 125 185z" horiz-adv-x="472" unicode="&#x50;"/><glyph d="M471 583C431 593 405 597 392 594 379 591 370 580 365 561 365 560 362 554 357 543 339 507 325 476 315 449 276 370 256 328 256 323 255 318 256 315 258 313 275 314 312 326 367 349 476 400 528 453 525 508 525 521 519 536 508 553 496 569 484 579 471 583M334 668C404 684 467 677 524 647 554 629 577 608 594 585 610 561 618 538 619 517 619 495 616 474 610 454 599 427 572 396 529 360 486 323 445 297 408 281 351 253 306 236 275 231 308 170 360 109 431 48 467 17 498-5 524-18 529-24 529-35 524-52 519-69 514-78 510-79 490-86 467-82 442-65 379-28 317 27 255 98 245 109 237 120 232 131 227 142 223 149 221 152 214 165 208 180 202 197 182 130 152 44 113-60 111-67 102-71 86-70 70-70 57-66 46-57 35-46 30-38 30-33 30-28 39-4 58 38 62 62 72 90 87 121 90 132 117 198 166 318 215 437 249 519 270 564 273 571 272 579 267 586 262 593 254 596 243 596 236 604 232 612 232 620 231 627 235 633 242 637z" horiz-adv-x="498" unicode="&#x52;"/><glyph d="M583 702C609 701 633 691 656 674 703 637 709 588 672 525 651 490 628 465 602 450 583 443 567 442 554 447 541 452 534 461 535 474 536 487 548 506 572 533 609 587 615 617 591 622 580 624 559 621 528 614 496 607 480 601 480 598l-4-5C473 594 455 583 420 560 385 537 366 524 365 521 364 514 356 507 342 501 330 494 319 484 310 471 300 458 287 438 272 411 261 396 253 379 248 362 240 332 248 308 271 291 294 274 316 260 337 249 371 230 402 209 429 188 456 166 473 149 479 136 498 109 501 70 487 21 481 8 473-3 464-14 455-25 446-31 439-30 433-31 427-34 421-37 414-41 409-44 405-47 400-50 382-53 349-58 316-63 288-66 266-65l-40 12C227-50 227-47 224-44 221-41 217-40 210-39 196-30 181-15 165 6 149 27 140 41 137 49 134 56 132 61 132 64 131 67 132 69 134 71 135 72 137 73 139 74 140 75 143 76 147 78 150 79 153 80 155 81 177 96 192 95 199 80 212 55 236 38 269 28 302 18 337 20 374 34 405 47 408 73 385 110 382 117 375 125 364 134 352 143 341 153 331 162 316 169 300 177 281 186 262 195 242 209 221 227 200 244 186 261 178 276 163 292 155 315 156 345 157 374 164 402 178 428 186 446 205 474 236 511 267 548 289 572 304 581l32 30C337 612 340 613 347 616 364 623 380 633 395 647 471 684 534 702 583 702z" horiz-adv-x="495" unicode="&#x53;"/><glyph d="M500 560C484 558 471 557 461 557 456 540 449 523 441 508 439 501 437 493 434 484 427 465 424 454 424 451 420 446 409 414 390 357 371 299 361 268 360 265l-48-131C299 109 287 79 278 44 268 9 260-15 254-27 248-40 243-47 240-49 236-51 230-52 221-53 212-54 203-48 195-37 186-26 182-14 183-1 184 11 189 34 200 69 210 104 219 131 228 150 230 159 233 169 236 179 239 188 240 194 240 195 247 204 253 217 257 235 260 253 284 332 329 471 335 481 341 494 346 509 351 512 354 519 354 530l7 15C362 546 364 547 366 546 367 545 369 546 372 549l-1 0-138-14C208 533 190 536 179 545 168 553 164 563 167 575 171 592 190 603 224 610 237 613 269 618 318 624 361 630 426 636 513 642 519 642 533 641 556 638 579 635 595 631 604 628 634 621 652 605 659 580 662 566 659 556 648 551 643 550 636 548 626 545 616 542 609 539 604 538 597 537 589 537 582 540 577 544 573 547 570 549 562 554 539 557 500 560z" horiz-adv-x="458" unicode="&#x54;"/><glyph d="M328 310C303 310 263 262 206 167 196 151 187 130 179 104 190 103 210 115 241 140 247 145 255 152 266 161 276 170 283 176 288 180 293 184 299 189 306 196 319 209 330 222 340 237l22 36C351 298 339 310 328 310M93 49C93 55 89 63 80 74 70 84 91 136 142 230 146 234 151 241 158 251 164 261 168 267 170 268 170 271 171 273 173 276 175 278 177 279 180 279l8 16C191 301 204 315 227 338 250 361 269 376 283 385 297 394 311 398 326 397 341 396 353 392 364 383 365 381 370 377 377 372 390 362 418 337 462 298l-17-50C430 204 434 163 457 126 464 112 475 104 491 101 507 98 515 91 515 79 515 52 506 36 488 32 436 25 397 46 371 96 362 109 356 123 353 140 348 133 341 125 330 114 239 22 171-9 124 21 122 25 116 30 107 37 98 44 93 48 93 49z" horiz-adv-x="446" unicode="&#x61;"/><glyph d="M300 232C300 235 302 248 307 269 312 290 312 303 309 310 305 316 297 316 284 311 259 297 241 279 229 257 216 234 206 206 197 172 188 137 183 116 184 108 185 95 188 88 193 85 213 80 231 81 246 89 261 97 282 111 307 130 308 131 311 134 316 141 320 148 324 152 328 154 333 163 341 167 352 167l21 0C385 163 395 155 402 143 405 137 405 133 402 131l-5-5C400 121 388 105 362 79 336 52 319 39 312 39 305 39 301 37 301 33 301 30 291 24 271 15 250 5 234-1 221-4 190-9 162-3 137 15 111 33 98 57 98 88 95 119 100 157 115 203 129 249 147 286 170 314 204 355 230 379 249 387 268 394 288 398 309 398 346 389 364 378 364 364l5-5C375 359 382 349 389 328 396 307 397 292 392 282 389 269 384 257 377 245 369 233 362 227 356 227 349 227 346 225 346 222 346 218 343 216 336 216 329 215 321 217 314 220 306 223 301 227 300 232z" horiz-adv-x="364" unicode="&#x63;"/><glyph d="M310 261C291 276 269 271 243 247 209 216 186 172 174 113 173 106 175 101 181 99 187 96 197 98 211 103 225 108 242 118 261 133 280 147 295 160 304 171 313 182 320 197 325 215 330 232 325 248 310 261M331 8C325 24 321 57 320 106l-41-37C237 30 198 10 162 10 151 12 138 21 122 37 105 53 95 67 90 78 82 97 85 129 99 174 113 218 132 254 156 281 177 313 205 334 238 344 271 353 300 350 325 335 346 324 358 326 361 341 362 344 371 372 389 427 406 482 430 542 461 607 474 635 488 648 502 647 511 647 520 644 531 639 541 633 548 625 553 614 557 603 555 590 548 577 531 547 509 498 484 430 459 362 441 309 430 270 419 231 413 184 411 127 408 70 409 38 413 29 414 18 415 10 415 5 414-1 411-6 406-9 400-13 395-15 391-16 386-17 380-19 373-20 365-21 357-19 349-13 341-7 335 0 331 8z" horiz-adv-x="402" unicode="&#x64;"/><glyph d="M293 324C284 324 272 317 256 303 239 288 225 272 213 253 214 245 225 241 246 241 267 241 280 243 286 246 291 249 301 257 315 271 328 284 335 294 336 299 336 314 325 322 304 324M300 397C339 397 368 388 386 369 404 350 413 332 413 315l0-8C413 293 404 270 385 238 376 221 361 207 342 194 323 181 303 174 284 173 265 172 246 174 229 177 211 180 200 181 196 181 192 181 188 179 185 174 180 167 178 153 178 133 180 114 185 101 194 94 202 87 212 83 224 83 236 83 247 85 258 90 269 95 281 103 296 115 310 127 321 133 329 133 337 133 345 129 353 121 361 113 365 105 366 98 364 83 349 63 320 38 291 13 258 0 221 0 184 0 154 11 131 32 108 53 96 84 96 123 96 138 97 155 99 172 100 189 106 211 116 236 126 261 142 289 164 318 186 347 210 368 235 380 260 391 282 397 300 397z" horiz-adv-x="334" unicode="&#x65;"/><glyph d="M165 14l-8-98C155-104 152-116 147-121 143-124 134-120 120-111 105-102 94-94 87-85 80-77 76-70 75-65 74-60 74-48 76-31 79-21 81-7 81 11 81 33 86 64 96 103 105 142 111 170 114 189 127 231 133 258 133 271 133 284 138 293 147 298 148 303 153 314 162 331 190 409 210 459 222 480 234 513 244 534 251 543 256 554 268 571 289 593 310 615 328 633 344 646 377 663 405 672 426 672 447 672 470 660 495 636 504 626 510 619 511 616 512 613 513 606 513 597 510 584 499 562 478 530 457 498 444 482 439 481 431 478 426 477 423 477 409 477 402 484 402 499 402 513 406 528 414 545 422 556 426 565 426 573 426 584 417 590 399 590 394 587 383 578 368 562 352 545 344 535 344 531 341 522 334 512 325 501 313 484 307 473 307 467 307 460 305 457 301 457 298 448 294 437 287 425 281 409 274 397 267 390l1 0C255 360 249 344 250 341 251 338 259 337 274 339 289 340 305 343 320 347 335 351 349 351 362 348 369 343 375 333 380 317 385 301 386 291 383 287 380 280 359 272 319 265 311 263 298 260 280 256 241 249 221 243 221 240 214 240 211 236 211 227 211 218 210 211 207 204 204 197 198 175 191 140 183 105 179 83 179 75 174 68 171 56 171 39 167 32 165 23 165 14z" horiz-adv-x="300" unicode="&#x66;"/><glyph d="M314 292C313 311 303 319 284 316 264 313 241 295 215 262 205 249 197 233 190 214 176 173 177 150 193 144 214 145 231 148 243 155 255 162 269 178 285 203 307 234 317 263 314 292M244 385C269 397 291 400 310 395 326 393 344 383 365 365 397 333 416 310 421 297 430 276 427 255 410 234 401 225 394 215 388 202 381 189 377 177 375 166 373 155 367 133 356 100 344 65 332 23 319-27 304-78 287-117 268-144 249-172 231-191 214-200 196-207 177-206 156-197 135-188 118-172 103-151 96-141 86-122 75-94 64-67 60-52 64-50 68-40 79-35 97-36 114-37 124-41 126-48 132-65 139-79 148-88 155-99 162-107 171-111 180-116 187-116 192-113 203-105 211-95 217-84 222-73 230-52 240-21 263 60 279 107 286 118 282 115 275 110 266 103 247 88 232 78 220 73 216 68 206 65 190 64 156 63 131 72 116 93 110 102 104 113 98 126 87 153 92 194 113 249 126 275 146 303 173 332 200 361 224 379 244 385z" horiz-adv-x="364" unicode="&#x67;"/><glyph d="M94 96l4 21C97 121 100 132 106 150 121 183 139 238 162 313 162 321 167 325 178 326 185 329 195 326 206 317 217 308 227 297 234 286 243 277 242 262 232 239 221 216 214 193 210 171 202 153 197 140 194 132 191 123 188 110 185 91 182 72 178 59 174 53 168 27 158 11 143 5 128-1 114 3 103 17 96 24 91 38 90 57 88 76 89 89 94 96M208 502C223 531 232 545 237 546 245 551 256 551 271 545 285 539 295 531 302 520 314 493 309 466 286 439 276 426 263 417 248 414 233 410 221 411 213 417 205 422 199 429 195 438 190 446 188 453 188 458 188 463 190 468 193 472 196 476 201 486 208 502z" horiz-adv-x="196" unicode="&#x69;"/><glyph d="M384 69l35 7C429 76 437 73 444 66 451 59 454 52 454 43 454 34 442 23 418 8 394-7 376-14 364-14 352-14 338-8 323 4 308 16 285 42 255 81 255 85 251 94 243 109 235 124 230 132 228 134 228 132 228 132 227 135 222 151 216 159 209 160 206 160 200 153 193 140 186 127 179 110 173 90 166 70 163 54 163 41 163 28 160 18 154 10 148 1 140-3 129-3 120-1 109 9 95 28 81 46 74 60 74 71 76 75 79 82 82 92 85 102 89 115 94 131 99 146 103 160 107 173 112 182 119 199 128 226 134 237 144 261 159 296 173 331 186 361 197 387 252 514 284 588 292 608 300 627 305 642 307 652l0 4C307 667 321 672 348 672 354 672 362 666 371 655 380 643 385 632 385 623 385 600 362 540 315 441 268 342 244 284 244 268 244 266 244 265 245 265 259 270 278 282 302 301 326 319 342 329 351 332 380 352 398 362 405 362 412 362 420 358 428 349 436 340 440 331 440 323 440 300 403 269 329 230 302 215 288 207 286 205 286 204 294 193 310 170 316 159 322 147 329 134 335 121 340 111 343 105 346 98 350 92 354 86 362 75 372 69 384 69z" horiz-adv-x="374" unicode="&#x6b;"/><glyph d="M164 335l10 38C185 394 203 440 230 513 257 585 270 624 270 631 270 638 272 643 276 648 280 653 285 655 290 655 294 659 304 661 319 661l16-16C350 631 358 618 358 607 358 596 356 584 352 573 347 561 335 533 314 490 311 483 308 474 303 465 298 455 295 447 292 442 289 436 288 432 288 431 288 430 288 428 287 425 286 422 284 418 282 413 280 408 277 401 274 394 247 335 234 303 234 297 234 290 232 285 229 282 226 282 224 279 224 274l0-3C224 264 219 247 208 218 179 121 165 61 165 37 165 12 157-4 142-11 123-16 107-6 95 19 83 44 81 75 89 112 96 131 100 145 100 154 102 167 109 190 121 223 132 256 140 275 143 282 150 282 153 289 153 304 153 319 157 329 164 335z" horiz-adv-x="178" unicode="&#x6c;"/><glyph d="M379 95l5 68 0 16C382 192 378 199 371 199 359 199 337 187 304 164 245 122 201 82 172 44 166 37 161 34 158 33 154 32 149 31 142 32 135 33 125 39 113 52 101 65 93 76 89 86 89 113 102 152 129 204 132 215 142 238 157 274 172 309 180 337 182 356l-1 1C181 364 184 367 191 367 192 369 199 370 211 370 223 370 235 365 248 356 261 347 267 334 267 317 267 300 258 275 241 240 224 205 215 187 215 186 226 193 246 209 276 232 345 287 387 315 403 315 412 315 424 310 440 301 455 291 464 282 467 274l-4-46 2-55C465 152 464 137 461 128l3-6C461 119 464 109 472 92 480 75 484 64 484 60 484 55 479 49 470 40 460 31 451 25 442 24 400 25 379 49 379 95z" horiz-adv-x="459" unicode="&#x6e;"/><glyph d="M321 288C314 291 308 292 303 291 298 290 291 285 280 278 229 235 199 190 189 141 187 124 189 112 195 104 200 95 210 93 223 97 236 101 248 108 259 119 270 129 277 136 280 139 283 142 286 145 289 148 291 151 293 155 296 160 298 165 300 168 301 171 302 173 304 177 307 183 309 189 311 193 312 196 313 198 314 203 317 211 320 218 322 224 325 228 327 232 328 242 329 259 329 275 326 285 321 288M198 326C231 355 261 372 288 378 328 387 356 384 372 367 398 356 413 332 417 296 422 241 404 183 362 122 337 86 303 55 260 29 243 17 212 10 168 7 157 7 144 13 129 26 99 57 86 85 90 109l2 23C89 135 88 138 90 140 91 142 92 143 93 144 97 144 98 147 97 154 96 160 98 172 104 190 110 208 118 225 127 240 150 277 173 306 198 326z" horiz-adv-x="362" unicode="&#x6f;"/><glyph d="M303 416C313 421 326 423 342 423 358 423 368 422 373 419 377 420 380 421 381 421 389 421 399 414 412 401 425 388 433 377 436 369 436 320 432 296 424 296 421 296 419 294 419 290 419 281 411 270 395 259 378 248 363 242 350 242 343 244 335 249 328 256 321 263 317 270 317 277 317 278 324 286 338 302 351 318 358 332 358 345 358 350 352 353 341 353 304 336 278 321 262 306 258 298 254 294 250 294 250 295 250 295 249 295 248 295 244 292 237 285 230 278 224 270 217 259 210 248 205 238 204 229l-2-3 0-5C201 220 201 217 201 213 201 202 215 187 244 166 272 145 292 129 303 118 314 107 320 97 323 88 329 76 332 65 332 56 332 33 320 16 297 4 273-9 245-15 212-15 179-15 151-8 127 6 103 20 91 32 91 43 90 53 94 59 101 61 108 66 117 68 129 65 143 62 160 60 181 57 194 57 207 58 219 61 230 64 236 66 236 69 236 72 233 75 228 80 223 85 217 87 211 87 211 90 198 101 172 121 145 140 132 153 132 159 132 160 132 160 133 161l0 5C128 166 124 172 120 185 116 198 114 210 114 222 114 257 135 295 177 336 218 377 260 403 303 416z" horiz-adv-x="350" unicode="&#x73;"/><glyph d="M210 430C213 437 219 450 230 467 253 512 270 539 279 546 288 553 299 558 312 559 324 560 336 557 347 550 357 536 357 522 348 508 344 500 338 490 329 477 320 464 314 454 310 447 299 431 297 422 305 421 313 420 333 422 364 427 395 432 413 420 417 392 419 376 417 366 412 363 407 360 391 358 366 358 345 355 325 353 306 353 287 352 275 351 271 350 263 348 257 342 252 331 250 330 248 326 245 320 241 312 233 296 220 273 203 222 189 170 180 116 178 103 179 93 182 88 185 83 196 79 214 77 246 74 281 83 319 106l27 16C351 130 358 126 368 109 371 105 373 101 374 97 374 71 360 50 332 34 305 17 276 6 246 1 216-4 193-5 178-2 163 1 148 10 135 25 122 40 113 52 110 63l-5 8C101 74 100 92 101 123 102 154 105 175 108 188 112 204 123 238 142 289l27 58-40 11C124 359 121 361 118 365 115 369 113 373 113 378 113 382 116 389 122 399 127 409 132 414 137 414 141 413 151 413 167 414 182 414 193 415 198 417 203 419 207 423 210 430z" horiz-adv-x="331" unicode="&#x74;"/><glyph d="M306 89l0 15C299 87 292 76 284 70 269 55 253 43 238 36 194 8 160 10 135 42 108 64 98 91 105 123 107 170 121 222 148 281 177 340 193 370 194 372 205 376 217 376 232 372 246 367 254 361 255 352 259 345 259 333 255 314 250 295 242 274 231 252 204 187 191 147 190 132 189 117 192 108 201 105 208 100 217 100 228 104 238 108 252 121 269 144 286 166 302 193 315 224 328 255 335 283 337 307 336 314 338 322 343 331 348 340 355 347 364 352 367 356 370 359 375 362 379 364 382 364 384 361l16 1C401 362 404 359 409 353 414 346 417 342 419 341 438 325 433 284 405 218 367 138 363 85 393 59 404 52 408 34 406 7 403-2 394-7 377-8 360-9 346-5 336 2 327 11 317 33 308 70 307 74 306 80 306 89z" horiz-adv-x="370" unicode="&#x75;"/></font><font horiz-adv-x="2048"><font-face underline-position="-150" underline-thickness="100" units-per-em="2048"/><missing-glyph d="M808 0l-708 0 0 1456 708 0M754 84l0 1287-274-643M154 1359l0-1263 268 632M194 54l515 0-258 606M451 796l258 606-515 0z" horiz-adv-x="908"/><glyph horiz-adv-x="510" unicode="&#x20;"/><glyph d="M128 592C128 746 149 892 190 1031 231 1169 292 1293 372 1402 452 1511 537 1587 626 1631l48-142C580 1418 504 1309 446 1163 387 1016 355 849 350 660l-1-86C349 372 378 192 435 34 492-125 571-245 674-328l-48-135C537-419 452-342 372-232 291-123 231 1 190 139 149 276 128 427 128 592z" horiz-adv-x="714" unicode="&#x28;"/><glyph d="M593 576C593 428 573 285 532 148 491 10 430-115 347-228 264-341 178-420 88-463l-48 135C140-251 219-132 278 27 336 186 365 367 365 571l0 23C365 779 340 948 289 1101 238 1253 166 1375 71 1467l-31 28 48 136C173 1590 256 1516 336 1411 416 1306 477 1188 520 1058 563 927 587 793 592 654z" horiz-adv-x="722" unicode="&#x29;"/><glyph d="M159-328l-131 78C67-189 93-136 108-91 122-46 129-1 130 46l0 189 219 0-1-175C347-11 330-81 295-152 260-223 214-282 159-328z" horiz-adv-x="450" unicode="&#x2c;"/><glyph d="M596 521l-525 0 0 196 525 0z" horiz-adv-x="672" unicode="&#x2d;"/><glyph d="M276 256C321 256 356 243 381 218 406 192 418 160 418 121 418 83 406 52 381 27 356 2 321-11 276-11 233-11 198 1 173 26 148 51 135 82 135 121 135 160 147 192 172 218 197 243 231 256 276 256z" horiz-adv-x="572" unicode="&#x2e;"/><glyph d="M1058 613C1058 404 1019 246 941 140 862 33 743-20 583-20 426-20 307 32 228 136 148 239 107 393 105 596l0 252C105 1057 144 1214 223 1319 301 1424 420 1476 581 1476 740 1476 859 1425 938 1323 1016 1221 1056 1068 1058 865M815 885C815 1022 796 1122 759 1186 722 1249 662 1281 581 1281 502 1281 443 1251 406 1191 369 1130 349 1036 347 908l0-330C347 442 366 341 404 274 442 207 502 174 583 174 661 174 719 205 756 267 793 328 813 425 815 556z" horiz-adv-x="1164" unicode="&#x30;"/><glyph d="M767 0l-242 0 0 1169-357-122 0 205 568 209 31 0z" horiz-adv-x="1164" unicode="&#x31;"/><glyph d="M1088 0l-979 0 0 167 485 529C664 774 714 839 744 892 773 944 788 996 788 1049 788 1118 769 1174 730 1217 691 1260 638 1281 572 1281 493 1281 432 1257 389 1209 346 1161 324 1095 324 1012l-243 0C81 1101 101 1181 142 1252 182 1323 240 1378 315 1417 390 1456 476 1476 574 1476 715 1476 827 1441 909 1370 990 1299 1031 1200 1031 1075 1031 1002 1011 926 970 847 929 767 861 676 768 575l-356-381 676 0z" horiz-adv-x="1164" unicode="&#x32;"/><glyph d="M390 839l148 0C613 840 672 859 716 897 759 935 781 990 781 1062 781 1131 763 1185 727 1224 690 1262 635 1281 560 1281 495 1281 441 1262 399 1225 357 1187 336 1138 336 1077l-243 0C93 1152 113 1220 153 1281 192 1342 248 1390 319 1425 390 1459 469 1476 557 1476 702 1476 817 1440 900 1367 983 1294 1024 1192 1024 1062 1024 997 1003 935 962 878 920 820 866 776 800 747 880 720 941 677 983 618 1024 559 1045 489 1045 408 1045 277 1000 173 911 96 821 19 703-20 557-20 417-20 302 17 213 92 124 167 79 266 79 390l243 0C322 326 344 274 387 234 430 194 487 174 560 174 635 174 695 194 738 234 781 274 803 332 803 408 803 485 780 544 735 585 690 626 622 647 533 647l-143 0z" horiz-adv-x="1164" unicode="&#x33;"/><glyph d="M174 722l79 734 782 0 0-210-580 0-40-348C482 937 558 956 643 956 782 956 890 912 967 823 1044 734 1082 615 1082 465 1082 317 1039 199 954 112 869 24 752-20 603-20 470-20 359 18 272 94 184 169 136 269 129 393l235 0C373 322 399 268 440 231 481 193 535 174 602 174 677 174 735 201 777 254 818 307 839 380 839 472 839 561 816 631 770 683 724 734 661 760 580 760 536 760 499 754 468 743 437 731 404 708 368 674z" horiz-adv-x="1164" unicode="&#x35;"/><glyph d="M1078 1321l-582-1321-255 0 581 1261-753 0 0 195 1009 0z" horiz-adv-x="1164" unicode="&#x37;"/><glyph d="M1026 1072C1026 1001 1008 937 971 882 934 826 884 782 821 750 897 715 956 666 997 605 1038 544 1058 474 1058 397 1058 269 1015 168 928 93 841 18 726-20 582-20 437-20 322 18 235 93 148 168 104 270 104 397 104 475 125 545 166 607 207 669 265 717 340 750 277 782 228 826 192 882 155 937 137 1001 137 1072 137 1196 177 1294 257 1367 337 1440 445 1476 581 1476 718 1476 826 1440 906 1367 986 1294 1026 1196 1026 1072M815 409C815 481 794 539 751 584 708 628 651 650 580 650 509 650 453 628 411 584 368 540 347 482 347 409 347 338 368 281 410 238 451 195 509 174 582 174 655 174 713 195 754 236 795 277 815 335 815 409M784 1063C784 1126 766 1179 729 1220 692 1261 643 1281 581 1281 519 1281 470 1262 434 1223 398 1184 380 1130 380 1063 380 996 398 943 435 904 471 865 520 845 582 845 644 845 693 865 730 904 766 943 784 996 784 1063z" horiz-adv-x="1164" unicode="&#x38;"/><glyph d="M1007 780l-862 0 0 202 862 0M1007 356l-862 0 0 201 862 0z" horiz-adv-x="1146" unicode="&#x3d;"/><glyph d="M148 0l0 1456 499 0C812 1456 937 1423 1023 1357 1109 1291 1152 1193 1152 1062 1152 995 1134 935 1098 882 1062 829 1009 787 940 758 1019 737 1080 697 1123 638 1166 579 1187 508 1187 425 1187 288 1143 183 1056 110 968 37 842 0 679 0M401 657l0-455 281 0C761 202 823 222 868 261 913 300 935 355 935 425 935 576 858 654 703 657M401 843l248 0C728 843 789 861 834 897 878 932 900 983 900 1048 900 1120 880 1172 839 1204 798 1236 734 1252 647 1252l-246 0z" horiz-adv-x="1292" unicode="&#x42;"/><glyph d="M1259 474C1244 319 1187 198 1087 111 987 24 854-20 688-20 572-20 470 8 382 63 293 118 225 196 177 297 129 398 104 516 102 650l0 136C102 923 126 1044 175 1149 224 1254 294 1334 385 1391 476 1448 581 1476 700 1476 861 1476 990 1432 1088 1345 1186 1258 1243 1134 1259 975l-252 0C995 1080 965 1155 916 1202 867 1248 795 1271 700 1271 590 1271 506 1231 447 1151 388 1070 357 952 356 797l0-129C356 511 384 391 441 308 497 225 579 184 688 184 787 184 862 206 912 251 962 296 994 370 1007 474z" horiz-adv-x="1337" unicode="&#x43;"/><glyph d="M999 650l-598 0 0-448 699 0 0-202-952 0 0 1456 945 0 0-204-692 0 0-402 598 0z" horiz-adv-x="1158" unicode="&#x45;"/><glyph d="M401 202l661 0 0-202-914 0 0 1456 253 0z" horiz-adv-x="1108" unicode="&#x4c;"/><glyph d="M476 1456l420-1116 419 1116 327 0 0-1456-252 0 0 480 25 642-430-1122-181 0-429 1121 25-641 0-480-252 0 0 1456z" horiz-adv-x="1793" unicode="&#x4d;"/><glyph d="M683 561l-282 0 0-561-253 0 0 1456 512 0C828 1456 958 1418 1049 1343 1140 1268 1186 1159 1186 1016 1186 919 1163 837 1116 772 1069 706 1003 655 919 620l327-607 0-13-271 0M401 764l260 0C746 764 813 786 861 829 909 872 933 930 933 1005 933 1083 911 1143 867 1186 822 1229 756 1251 668 1252l-267 0z" horiz-adv-x="1278" unicode="&#x52;"/><glyph d="M909 375C909 439 887 488 842 523 797 558 715 593 598 628 481 663 387 703 318 746 185 829 119 938 119 1072 119 1189 167 1286 263 1362 358 1438 482 1476 635 1476 736 1476 827 1457 906 1420 985 1383 1048 1330 1093 1261 1138 1192 1161 1115 1161 1031l-252 0C909 1107 885 1167 838 1210 790 1253 722 1274 633 1274 550 1274 486 1256 441 1221 395 1186 372 1136 372 1073 372 1020 397 975 446 940 495 904 577 869 690 836 803 802 894 764 963 721 1032 678 1082 628 1114 573 1146 517 1162 452 1162 377 1162 256 1116 159 1023 88 930 16 803-20 644-20 539-20 442 0 354 39 265 78 197 131 148 200 99 269 74 349 74 440l253 0C327 357 354 293 409 248 464 203 542 180 644 180 732 180 798 198 843 234 887 269 909 316 909 375z" horiz-adv-x="1236" unicode="&#x53;"/><glyph d="M1213 1456l0-973C1213 328 1164 206 1065 116 966 25 834-20 669-20 502-20 370 25 272 114 174 203 125 326 125 484l0 972 252 0 0-974C377 385 402 310 451 259 500 208 573 182 669 182 864 182 961 285 961 490l0 966z" horiz-adv-x="1335" unicode="&#x55;"/><glyph d="M540 1488l-165 0 0-1623 165 0 0-189-408 0 0 2002 408 0z" horiz-adv-x="561" unicode="&#x5b;"/><glyph d="M12 1678l410 0 0-2002-410 0 0 189 167 0 0 1623-167 0z" horiz-adv-x="561" unicode="&#x5d;"/><glyph d="M771 0C760 21 751 54 743 101 666 20 571-20 459-20 350-20 262 11 193 73 124 135 90 212 90 303 90 418 133 507 219 569 304 630 427 661 586 661l149 0 0 71C735 788 719 833 688 867 657 900 609 917 545 917 490 917 444 903 409 876 374 848 356 813 356 770l-243 0C113 829 133 885 172 937 211 988 265 1029 333 1058 400 1087 476 1102 559 1102 686 1102 787 1070 862 1007 937 943 976 853 978 738l0-488C978 153 992 75 1019 17l0-17M504 175C552 175 597 187 640 210 682 233 714 265 735 304l0 204-131 0C514 508 446 492 401 461 356 430 333 385 333 328 333 281 349 244 380 217 411 189 452 175 504 175z" horiz-adv-x="1108" unicode="&#x61;"/><glyph d="M569 174C630 174 680 192 720 227 760 262 781 306 784 358l229 0C1010 291 989 228 950 170 911 111 857 65 790 31 723-3 650-20 572-20 421-20 301 29 212 127 123 225 79 360 79 533l0 25C79 723 123 855 211 954 299 1053 419 1102 571 1102 700 1102 805 1065 886 990 967 915 1009 816 1013 694l-229 0C781 756 760 807 721 847 681 887 630 907 569 907 490 907 430 879 387 822 344 765 323 678 322 562l0-39C322 406 343 318 386 261 428 203 489 174 569 174z" horiz-adv-x="1072" unicode="&#x63;"/><glyph d="M79 549C79 716 118 850 195 951 272 1052 376 1102 506 1102 621 1102 713 1062 784 982l0 554 243 0 0-1536-220 0-12 112C722 24 625-20 504-20 377-20 275 31 197 133 118 235 79 374 79 549M322 528C322 418 343 332 386 271 428 209 488 178 566 178 665 178 738 222 784 311l0 462C739 860 667 903 568 903 489 903 429 872 386 810 343 747 322 653 322 528z" horiz-adv-x="1156" unicode="&#x64;"/><glyph d="M601-20C447-20 322 29 227 126 131 223 83 352 83 513l0 30C83 651 104 748 146 833 187 918 246 984 321 1031 396 1078 480 1102 573 1102 720 1102 834 1055 915 961 995 867 1035 734 1035 562l0-98-707 0C335 375 365 304 418 252 470 200 536 174 615 174 726 174 817 219 887 309l131-125C975 119 917 69 845 34 772-2 691-20 601-20M572 907C505 907 452 884 411 837 370 790 343 725 332 642l463 0 0 18C790 741 768 803 730 845 692 886 639 907 572 907z" horiz-adv-x="1099" unicode="&#x65;"/><glyph d="M82 549C82 717 122 851 201 952 280 1052 384 1102 515 1102 638 1102 735 1059 806 973l11 109 219 0 0-1049C1036-109 992-221 904-303 815-385 696-426 546-426 467-426 389-409 314-376 238-343 180-300 141-247l115 146C331-190 423-234 532-234 613-234 676-212 723-168 770-125 793-61 793 24l0 73C723 19 630-20 513-20 386-20 283 30 203 131 122 232 82 371 82 549M324 528C324 419 346 334 391 272 435 209 496 178 575 178 673 178 746 220 793 304l0 476C747 862 675 903 577 903 497 903 435 871 391 808 346 745 324 651 324 528z" horiz-adv-x="1161" unicode="&#x67;"/><glyph d="M383 0l-243 0 0 1082 243 0M125 1363C125 1400 137 1431 161 1456 184 1481 218 1493 262 1493 306 1493 340 1481 364 1456 388 1431 400 1400 400 1363 400 1326 388 1296 364 1272 340 1247 306 1235 262 1235 218 1235 184 1247 161 1272 137 1296 125 1326 125 1363z" horiz-adv-x="523" unicode="&#x69;"/><glyph d="M476 464l-108-111 0-353-243 0 0 1536 243 0 0-886 76 95 299 337 292 0-402-451 445-631-281 0z" horiz-adv-x="1069" unicode="&#x6b;"/><glyph d="M383 0l-243 0 0 1536 243 0z" horiz-adv-x="523" unicode="&#x6c;"/><glyph d="M353 1082l7-113C436 1058 540 1102 672 1102 817 1102 916 1047 969 936 1048 1047 1158 1102 1301 1102 1420 1102 1509 1069 1568 1003 1626 937 1656 840 1657 711l0-711-243 0 0 704C1414 773 1399 823 1369 855 1339 887 1289 903 1220 903 1165 903 1120 888 1085 859 1050 829 1025 790 1011 742l1-742-243 0 0 712C766 839 701 903 574 903 477 903 408 863 367 784l0-784-243 0 0 1082z" horiz-adv-x="1782" unicode="&#x6d;"/><glyph d="M350 1082l7-125C437 1054 542 1102 672 1102 897 1102 1012 973 1016 715l0-715-243 0 0 701C773 770 758 821 729 854 699 887 650 903 583 903 485 903 412 859 364 770l0-770-243 0 0 1082z" horiz-adv-x="1139" unicode="&#x6e;"/><glyph d="M79 551C79 657 100 753 142 838 184 923 243 988 319 1034 395 1079 482 1102 581 1102 727 1102 846 1055 937 961 1028 867 1077 742 1084 587l1-57C1085 423 1065 328 1024 244 983 160 924 95 848 49 771 3 683-20 583-20 430-20 308 31 217 133 125 234 79 370 79 539M322 530C322 419 345 332 391 269 437 206 501 174 583 174 665 174 729 206 775 270 820 334 843 428 843 551 843 660 820 747 773 811 726 875 662 907 581 907 502 907 439 876 392 813 345 750 322 655 322 530z" horiz-adv-x="1166" unicode="&#x6f;"/><glyph d="M1072 530C1072 363 1034 229 958 130 882 30 780-20 652-20 533-20 438 19 367 97l0-513-243 0 0 1498 224 0 10-110C429 1059 526 1102 649 1102 781 1102 885 1053 960 955 1035 856 1072 720 1072 545M830 551C830 659 809 745 766 808 723 871 661 903 581 903 482 903 410 862 367 780l0-480C411 216 483 174 583 174 660 174 721 205 765 268 808 330 830 424 830 551z" horiz-adv-x="1153" unicode="&#x70;"/><glyph d="M691 860C659 865 626 868 592 868 481 868 406 825 367 740l0-740-243 0 0 1082 232 0 6-121C421 1055 502 1102 606 1102 641 1102 669 1097 692 1088z" horiz-adv-x="720" unicode="&#x72;"/><glyph d="M731 294C731 337 713 370 678 393 642 416 583 436 500 453 417 470 348 492 293 519 172 578 111 663 111 774 111 867 150 945 229 1008 308 1071 408 1102 529 1102 658 1102 763 1070 843 1006 922 942 962 859 962 757l-243 0C719 804 702 843 667 874 632 905 586 920 529 920 476 920 432 908 399 883 365 858 348 825 348 784 348 747 364 718 395 697 426 676 490 656 585 635 680 614 755 589 810 560 864 531 904 496 931 455 957 414 970 365 970 307 970 210 930 131 849 71 768 10 663-20 532-20 443-20 364-4 295 28 226 60 172 104 133 160 94 216 75 276 75 341l236 0C314 284 336 240 376 209 416 178 469 162 535 162 599 162 648 174 681 199 714 223 731 255 731 294z" horiz-adv-x="1057" unicode="&#x73;"/><glyph d="M429 1345l0-263 191 0 0-180-191 0 0-604C429 257 437 227 454 209 470 190 499 181 541 181 569 181 597 184 626 191l0-188C571-12 517-20 466-20 279-20 186 83 186 289l0 613-178 0 0 180 178 0 0 263z" horiz-adv-x="681" unicode="&#x74;"/><glyph d="M780 106C709 22 607-20 476-20 359-20 270 14 210 83 149 152 119 251 119 381l0 701 243 0 0-698C362 247 419 178 533 178 651 178 731 220 772 305l0 777 243 0 0-1082-229 0z" horiz-adv-x="1138" unicode="&#x75;"/></font><font horiz-adv-x="1000"><font-face underline-position="-100" underline-thickness="50"/><missing-glyph d="M0 0l500 0 0 700-500 0M250 395l-170 255 340 0M280 350l170 255 0-510M80 50l170 255 170-255M50 605l170-255-170-255z" horiz-adv-x="500"/><glyph d="M30 284l0-60 440 0 0 60z" horiz-adv-x="500" unicode="&#x2013;"/></font><font horiz-adv-x="2048"><font-face underline-position="-150" underline-thickness="100" units-per-em="2048"/><missing-glyph d="M699 0l-595 0 0 1456 595 0M653 86l0 1284-229-642M149 1361l0-1267 226 634M183 54l432 0-216 605M399 796l216 606-432 0z" horiz-adv-x="803"/><glyph horiz-adv-x="469" unicode="&#x20;"/><glyph d="M895 621C895 406 864 246 801 140 738 33 640-20 506-20 376-20 279 31 215 133 151 235 118 388 115 593l0 250C115 1056 147 1214 210 1319 273 1424 371 1476 504 1476 635 1476 733 1426 796 1327 859 1228 892 1077 895 876M718 874C718 1028 701 1142 667 1215 633 1288 579 1324 504 1324 431 1324 378 1288 344 1217 310 1145 292 1037 291 892l0-300C291 439 309 324 344 247 379 170 433 131 506 131 578 131 631 167 665 240 699 313 717 424 718 573z" horiz-adv-x="1011" unicode="&#x30;"/><glyph d="M644 0l-178 0 0 1233-306-137 0 168 456 199 28 0z" horiz-adv-x="1011" unicode="&#x31;"/><glyph d="M931 0l-814 0 0 133 415 550C595 768 638 837 663 892 687 946 699 1003 699 1064 699 1141 681 1204 645 1252 609 1300 562 1324 503 1324 429 1324 372 1299 332 1248 291 1197 271 1123 271 1027l-177 0C94 1161 131 1269 204 1352 277 1435 377 1476 503 1476 619 1476 710 1441 777 1370 844 1299 877 1204 877 1086 877 942 802 772 652 575l-324-424 603 0z" horiz-adv-x="1011" unicode="&#x32;"/><glyph d="M787 489l162 0 0-151-162 0 0-338-177 0 0 338-550 0 0 109 541 1009 186 0M256 489l354 0 0 692z" horiz-adv-x="1011" unicode="&#x34;"/><glyph d="M189 730l63 726 633 0 0-171-484 0-34-397C427 930 492 951 561 951 674 951 763 907 828 819 893 731 925 613 925 464 925 313 890 195 820 109 749 23 653-20 530-20 421-20 332 16 263 87 194 158 155 257 145 383l166 0C321 300 345 237 383 195 420 152 469 131 530 131 599 131 652 161 691 221 730 280 749 361 749 462 749 557 728 635 687 695 645 755 589 785 518 785 459 785 412 770 377 739l-47-47z" horiz-adv-x="1011" unicode="&#x35;"/><glyph d="M733 1457l0-157-29 0C586 1297 494 1258 427 1181 360 1104 322 988 312 833 377 914 459 955 560 955 667 955 753 911 816 823 879 734 910 618 910 475 910 322 875 202 806 113 736 24 642-20 525-20 407-20 312 32 240 137 168 242 132 381 132 554l0 71C132 825 154 984 197 1103 240 1222 304 1310 389 1368 473 1425 578 1455 703 1457M530 801C482 801 438 783 397 746 356 709 327 663 309 606l0-73C309 415 330 319 372 245 413 170 464 133 525 133 591 133 643 164 680 225 717 286 736 366 736 466 736 565 717 645 680 708 643 770 593 801 530 801z" horiz-adv-x="1011" unicode="&#x36;"/><glyph d="M920 1352l-501-1352-185 0 500 1304-649 0 0 152 835 0z" horiz-adv-x="1011" unicode="&#x37;"/><glyph d="M866 1076C866 1003 850 939 818 882 785 825 742 781 687 749 752 716 802 668 839 606 876 543 894 472 894 393 894 268 859 168 788 93 717 18 622-20 505-20 388-20 294 18 223 93 152 168 116 268 116 393 116 473 134 545 171 608 207 671 256 718 319 750 264 782 221 826 190 883 159 939 143 1003 143 1076 143 1199 176 1296 243 1368 309 1440 396 1476 505 1476 613 1476 700 1440 767 1369 833 1298 866 1200 866 1076M717 397C717 480 697 547 658 598 619 648 567 673 503 673 438 673 386 648 349 597 311 546 292 480 292 397 292 313 311 248 348 201 385 154 437 131 505 131 573 131 625 154 662 201 699 248 717 313 717 397M690 1073C690 1147 673 1207 638 1254 603 1301 559 1324 505 1324 448 1324 403 1301 370 1255 337 1209 320 1148 320 1073 320 997 337 937 371 892 405 847 450 825 505 825 562 825 607 848 640 893 673 938 690 998 690 1073z" horiz-adv-x="1011" unicode="&#x38;"/><glyph d="M699 622C628 532 546 487 451 487 345 487 261 532 198 621 135 710 104 827 104 972 104 1124 138 1246 207 1338 275 1430 368 1476 486 1476 609 1476 705 1423 774 1317 843 1210 877 1063 877 875l0-55C877 659 865 528 841 428 816 328 780 247 733 186 686 125 625 78 552 47 479 15 387-1 277-1l0 156 31 0C433 158 529 196 594 270 659 343 694 461 699 622M481 640C524 640 565 658 606 694 647 729 678 776 701 834l0 78C701 1033 680 1131 638 1208 596 1284 545 1322 486 1322 422 1322 371 1291 334 1228 296 1165 277 1083 277 982 277 881 295 799 332 736 369 672 418 640 481 640z" horiz-adv-x="1011" unicode="&#x39;"/><glyph d="M93 329l275 334-277 337 113 123 272-330 272 330 112-123-278-337 276-334-113-123-270 327-269-327z" horiz-adv-x="964" unicode="&#xd7;"/><glyph d="M1003 651l-842 0 0 151 842 0z" horiz-adv-x="1172" unicode="&#x2013;"/></font><font horiz-adv-x="2048"><font-face underline-position="-150" underline-thickness="100" units-per-em="2048"/><missing-glyph d="M808 0l-708 0 0 1456 708 0M754 84l0 1287-274-643M154 1359l0-1263 268 632M194 54l515 0-258 606M451 796l258 606-515 0z" horiz-adv-x="908"/><glyph horiz-adv-x="510" unicode="&#x20;"/><glyph d="M1097 0l-998 0 0 198 471 502C635 771 683 832 714 885 745 938 760 988 760 1035 760 1100 744 1151 711 1188 678 1225 632 1243 571 1243 506 1243 454 1221 417 1176 379 1131 360 1071 360 998l-290 0C70 1087 91 1168 134 1241 176 1314 236 1372 313 1414 390 1455 478 1476 576 1476 726 1476 843 1440 926 1368 1009 1296 1050 1194 1050 1063 1050 991 1031 918 994 843 957 768 893 681 802 582l-331-349 626 0z" horiz-adv-x="1175" unicode="&#x32;"/><glyph d="M952 300l-526 0-100-300-319 0 542 1456 278 0 545-1456-319 0M507 543l364 0-183 545z" horiz-adv-x="1378" unicode="&#x41;"/><glyph d="M130 0l0 1456 510 0C817 1456 951 1422 1042 1355 1133 1287 1179 1188 1179 1057 1179 986 1161 923 1124 869 1087 814 1036 774 971 749 1046 730 1105 693 1148 636 1191 579 1212 510 1212 428 1212 288 1167 182 1078 110 989 38 861 1 696 0M430 634l0-393 257 0C758 241 813 258 853 292 892 325 912 372 912 431 912 564 843 632 705 634M430 846l222 0C803 849 879 909 879 1027 879 1093 860 1141 822 1170 783 1199 723 1213 640 1213l-210 0z" horiz-adv-x="1307" unicode="&#x42;"/><glyph d="M130 0l0 1456 448 0C706 1456 821 1427 922 1370 1023 1312 1101 1230 1158 1124 1215 1017 1243 896 1243 761l0-67C1243 559 1215 438 1160 333 1104 228 1025 146 924 88 823 30 708 1 581 0M430 1213l0-972 145 0C692 241 782 279 844 356 906 433 938 542 939 685l0 77C939 910 908 1022 847 1099 786 1175 696 1213 578 1213z" horiz-adv-x="1331" unicode="&#x44;"/><glyph d="M1006 631l-576 0 0-390 676 0 0-241-976 0 0 1456 974 0 0-243-674 0 0-347 576 0z" horiz-adv-x="1152" unicode="&#x45;"/><glyph d="M449 0l-300 0 0 1456 300 0z" horiz-adv-x="597" unicode="&#x49;"/><glyph d="M669 533l-239 0 0-533-300 0 0 1456 541 0C843 1456 976 1418 1069 1341 1162 1264 1209 1156 1209 1016 1209 917 1188 834 1145 768 1102 701 1036 648 949 609l315-595 0-14-322 0M430 776l242 0C747 776 806 795 847 834 888 872 909 925 909 992 909 1061 890 1115 851 1154 812 1193 752 1213 671 1213l-241 0z" horiz-adv-x="1307" unicode="&#x52;"/><glyph d="M738 0C725 26 715 58 709 97 639 19 548-20 436-20 330-20 242 11 173 72 103 133 68 211 68 304 68 419 111 507 196 568 281 629 403 660 564 661l133 0 0 62C697 773 684 813 659 843 633 873 592 888 537 888 488 888 450 876 423 853 395 830 381 798 381 757l-289 0C92 820 111 878 150 931 189 984 243 1026 314 1057 385 1087 464 1102 552 1102 685 1102 791 1069 870 1002 948 935 987 840 987 719l0-469C988 147 1002 70 1030 17l0-17M499 201C542 201 581 211 617 230 653 249 680 274 697 306l0 186-108 0C444 492 367 442 358 342l-1-17C357 289 370 259 395 236 420 213 455 201 499 201z" horiz-adv-x="1098" unicode="&#x61;"/><glyph d="M66 549C66 718 104 852 180 952 255 1052 359 1102 490 1102 595 1102 682 1063 751 984l0 552 290 0 0-1536-261 0-14 115C694 25 601-20 488-20 361-20 259 30 182 131 105 231 66 370 66 549M355 528C355 427 373 349 408 295 443 241 495 214 562 214 651 214 714 252 751 327l0 427C715 829 653 867 564 867 425 867 355 754 355 528z" horiz-adv-x="1154" unicode="&#x64;"/><glyph d="M609-20C450-20 321 29 222 126 122 223 72 353 72 515l0 28C72 652 93 749 135 835 177 920 237 986 314 1033 391 1079 478 1102 577 1102 725 1102 842 1055 927 962 1012 869 1054 736 1054 565l0-118-689 0C374 376 403 320 450 277 497 234 556 213 628 213 739 213 826 253 889 334l142-159C988 114 929 66 855 32 781-3 699-20 609-20M576 868C519 868 472 849 437 810 401 771 378 716 368 644l402 0 0 23C769 731 751 781 718 816 685 851 637 868 576 868z" horiz-adv-x="1107" unicode="&#x65;"/><glyph d="M190 0l0 870-161 0 0 212 161 0 0 92C190 1295 225 1390 295 1457 364 1524 462 1557 587 1557 627 1557 676 1550 734 1537l-3-224C707 1319 678 1322 643 1322 534 1322 480 1271 480 1169l0-87 215 0 0-212-215 0 0-870z" horiz-adv-x="734" unicode="&#x66;"/><glyph d="M69 549C69 715 109 849 188 950 267 1051 373 1102 507 1102 626 1102 718 1061 784 980l12 102 262 0 0-1046C1058-59 1037-141 994-211 951-281 890-334 812-371 734-408 643-426 538-426 459-426 381-410 306-378 231-347 174-306 135-256l128 176C335-161 422-201 525-201 602-201 661-180 704-139 747-98 768-40 768 35l0 58C701 18 614-20 505-20 375-20 270 31 190 133 109 234 69 369 69 537M358 528C358 430 378 353 417 298 456 242 510 214 579 214 667 214 730 247 768 313l0 455C729 834 667 867 581 867 512 867 457 839 418 782 378 725 358 641 358 528z" horiz-adv-x="1169" unicode="&#x67;"/><glyph d="M416 0l-290 0 0 1082 290 0M109 1362C109 1405 124 1441 153 1469 182 1497 221 1511 271 1511 320 1511 360 1497 389 1469 418 1441 433 1405 433 1362 433 1318 418 1282 389 1254 359 1226 320 1212 271 1212 222 1212 183 1226 154 1254 124 1282 109 1318 109 1362z" horiz-adv-x="543" unicode="&#x69;"/><glyph d="M416 0l-290 0 0 1536 290 0z" horiz-adv-x="543" unicode="&#x6c;"/><glyph d="M377 1082l9-125C463 1054 567 1102 697 1102 812 1102 897 1068 953 1001 1009 934 1038 833 1039 699l0-699-289 0 0 692C750 753 737 798 710 826 683 853 639 867 577 867 496 867 435 832 394 763l0-763-289 0 0 1082z" horiz-adv-x="1147" unicode="&#x6e;"/><glyph d="M66 551C66 658 87 754 128 838 169 922 229 987 307 1033 384 1079 474 1102 577 1102 723 1102 842 1057 935 968 1027 879 1078 757 1089 604l2-74C1091 364 1045 231 952 131 859 30 735-20 579-20 423-20 299 30 206 130 113 230 66 366 66 538M355 530C355 427 374 349 413 295 452 240 507 213 579 213 649 213 704 240 743 294 782 347 802 433 802 551 802 652 782 730 743 785 704 840 648 868 577 868 506 868 452 841 413 786 374 731 355 645 355 530z" horiz-adv-x="1158" unicode="&#x6f;"/><glyph d="M1085 531C1085 364 1047 231 972 131 896 30 794-20 665-20 556-20 467 18 400 94l0-510-289 0 0 1498 268 0 10-106C459 1060 550 1102 663 1102 796 1102 900 1053 974 954 1048 855 1085 719 1085 546M796 552C796 653 778 730 743 785 707 840 655 867 587 867 496 867 434 832 400 763l0-443C435 249 498 213 589 213 727 213 796 326 796 552z" horiz-adv-x="1153" unicode="&#x70;"/><glyph d="M719 811C680 816 645 819 615 819 506 819 434 782 400 708l0-708-289 0 0 1082 273 0 8-129C450 1052 530 1102 633 1102 665 1102 695 1098 723 1089z" horiz-adv-x="747" unicode="&#x72;"/><glyph d="M697 299C697 334 680 362 645 383 610 403 553 421 476 437 219 491 90 600 90 765 90 861 130 941 210 1006 289 1070 393 1102 522 1102 659 1102 769 1070 852 1005 934 940 975 856 975 753l-289 0C686 794 673 829 646 856 619 883 578 896 521 896 472 896 435 885 408 863 381 841 368 813 368 779 368 747 383 721 414 702 444 682 495 665 567 651 639 636 700 620 749 602 902 546 978 449 978 311 978 212 936 133 851 72 766 11 657-20 523-20 432-20 352-4 282 29 211 61 156 105 116 162 76 218 56 279 56 344l274 0C333 293 352 253 387 226 422 199 470 185 529 185 584 185 626 196 655 217 683 238 697 265 697 299z" horiz-adv-x="1053" unicode="&#x73;"/><glyph d="M457 1348l0-266 185 0 0-212-185 0 0-540C457 290 465 261 480 244 495 227 525 218 568 218 600 218 628 220 653 225l0-219C596-11 538-20 478-20 275-20 172 82 168 287l0 583-158 0 0 212 158 0 0 266z" horiz-adv-x="692" unicode="&#x74;"/><glyph d="M759 110C688 23 589-20 463-20 347-20 259 13 198 80 137 147 105 244 104 373l0 709 289 0 0-699C393 270 444 214 547 214 645 214 712 248 749 316l0 766 290 0 0-1082-272 0z" horiz-adv-x="1146" unicode="&#x75;"/><glyph d="M523 759l182 323 309 0-308-530 321-552-310 0-193 340-192-340-311 0 321 552-307 530 310 0z" horiz-adv-x="1042" unicode="&#x78;"/><glyph d="M515 409l200 673 310 0-435-1250-24-57C501-366 395-437 246-437 204-437 161-431 118-418l0 219 44-1C217-200 258-192 285-175 312-158 333-131 348-92l34 89-379 1085 311 0z" horiz-adv-x="1028" unicode="&#x79;"/><glyph d="M443 233l529 0 0-233-898 0 0 176 509 672-494 0 0 234 867 0 0-171z" horiz-adv-x="1042" unicode="&#x7a;"/></font>
</svg>
