<svg enable-background="new 0 0 640 380" viewBox="0 0 640 380" xmlns="http://www.w3.org/2000/svg"><font horiz-adv-x="2048"><font-face underline-position="-217" underline-thickness="150" units-per-em="2048"/><missing-glyph d="M256 0l0 1280 1024 0 0-1280M288 32l960 0 0 1216-960 0z" horiz-adv-x="1536"/><glyph horiz-adv-x="569" unicode="&#x20;"/><glyph d="M65 440l0 181 553 0 0-181z" horiz-adv-x="682" unicode="&#x2d;"/><glyph d="M1031 173l0-173-969 0C61 43 68 85 83 125 108 191 147 256 202 320 256 384 334 458 437 542 596 673 704 776 760 853 816 929 844 1001 844 1069 844 1140 819 1201 768 1250 717 1299 650 1323 568 1323 481 1323 412 1297 360 1245 308 1193 282 1121 281 1029l-185 19C109 1186 156 1291 239 1364 322 1436 433 1472 572 1472 713 1472 824 1433 906 1355 988 1277 1029 1180 1029 1065 1029 1006 1017 949 993 892 969 835 929 776 874 713 818 650 725 564 596 455 488 364 419 303 388 271 357 238 332 206 312 173z" horiz-adv-x="1139" unicode="&#x32;"/><glyph d="M86 387l180 24C287 309 322 236 372 191 421 146 482 123 553 123 638 123 709 152 768 211 826 270 855 342 855 429 855 512 828 580 774 634 720 687 651 714 568 714 534 714 492 707 441 694l20 158C473 851 483 850 490 850 567 850 636 870 697 910 758 950 789 1012 789 1095 789 1161 767 1216 722 1259 677 1302 620 1324 549 1324 479 1324 421 1302 374 1258 327 1214 297 1148 284 1060l-180 32C126 1213 176 1306 254 1373 332 1439 429 1472 545 1472 625 1472 699 1455 766 1421 833 1386 885 1339 921 1280 956 1221 974 1158 974 1091 974 1028 957 970 923 918 889 866 839 825 772 794 859 774 926 733 974 670 1022 607 1046 528 1046 433 1046 305 999 197 906 108 813 19 695-26 552-26 423-26 317 12 232 89 147 166 98 265 86 387z" horiz-adv-x="1139" unicode="&#x33;"/><glyph d="M662 0l0 351-636 0 0 165 669 950 147 0 0-950 198 0 0-165-198 0 0-351M662 516l0 661-459-661z" horiz-adv-x="1139" unicode="&#x34;"/><glyph d="M362 795C287 822 232 861 196 912 160 963 142 1023 142 1094 142 1201 180 1290 257 1363 334 1436 436 1472 563 1472 691 1472 794 1435 872 1361 950 1286 989 1196 989 1089 989 1021 971 962 936 912 900 861 846 822 773 795 863 766 932 718 979 653 1026 588 1049 510 1049 419 1049 294 1005 188 916 103 827 18 711-25 566-25 421-25 305 18 216 104 127 189 83 296 83 424 83 519 107 599 156 664 204 728 273 772 362 795M326 1100C326 1031 348 974 393 930 438 886 496 864 567 864 636 864 693 886 738 930 782 973 804 1027 804 1090 804 1156 781 1212 736 1257 690 1302 633 1324 565 1324 496 1324 439 1302 394 1258 349 1214 326 1161 326 1100M268 423C268 372 280 322 305 274 329 226 365 189 413 163 461 136 513 123 568 123 654 123 725 151 781 206 837 261 865 332 865 417 865 504 836 575 779 632 721 689 649 717 562 717 477 717 407 689 352 633 296 577 268 507 268 423z" horiz-adv-x="1139" unicode="&#x38;"/><glyph d="M112 339l173 16C300 274 328 215 369 178 410 141 463 123 528 123 583 123 632 136 674 161 715 186 749 220 776 263 803 305 825 362 843 434 861 506 870 579 870 654 870 662 870 674 869 690 833 633 784 586 722 551 659 515 592 497 519 497 398 497 295 541 211 629 127 717 85 833 85 977 85 1126 129 1245 217 1336 304 1427 414 1472 546 1472 641 1472 729 1446 808 1395 887 1344 947 1271 988 1176 1029 1081 1049 943 1049 763 1049 576 1029 427 988 316 947 205 887 120 807 62 726 4 632-25 524-25 409-25 316 7 243 71 170 134 127 224 112 339M849 986C849 1089 822 1171 767 1232 712 1293 645 1323 568 1323 488 1323 418 1290 359 1225 300 1160 270 1075 270 971 270 878 298 802 355 744 411 685 480 656 563 656 646 656 715 685 769 744 822 802 849 883 849 986z" horiz-adv-x="1139" unicode="&#x39;"/><glyph d="M-3 0l563 1466 209 0 600-1466-221 0-171 444-613 0-161-444M420 602l497 0-153 406C717 1131 683 1233 660 1312 641 1218 615 1125 581 1032z" horiz-adv-x="1366" unicode="&#x41;"/><glyph d="M150 0l0 1466 550 0C812 1466 902 1451 970 1422 1037 1392 1090 1346 1129 1285 1167 1223 1186 1158 1186 1091 1186 1028 1169 969 1135 914 1101 859 1050 814 981 780 1070 754 1138 710 1186 647 1233 584 1257 510 1257 425 1257 356 1243 293 1214 234 1185 175 1149 129 1106 97 1063 65 1010 41 946 25 881 8 802 0 709 0M344 850l317 0C747 850 809 856 846 867 895 882 933 906 958 940 983 974 995 1017 995 1068 995 1117 983 1160 960 1197 937 1234 903 1259 860 1273 817 1286 742 1293 637 1293l-293 0M344 173l365 0C772 173 816 175 841 180 886 188 923 201 953 220 983 239 1008 266 1027 302 1046 337 1056 378 1056 425 1056 480 1042 527 1014 568 986 608 947 636 898 653 848 669 776 677 683 677l-339 0z" horiz-adv-x="1366" unicode="&#x42;"/><glyph d="M158 0l0 1466 505 0C777 1466 864 1459 924 1445 1008 1426 1080 1391 1139 1340 1216 1275 1274 1191 1313 1090 1351 988 1370 872 1370 741 1370 630 1357 531 1331 445 1305 359 1272 288 1231 232 1190 175 1146 131 1098 99 1049 66 991 42 923 25 854 8 776 0 687 0M352 173l313 0C762 173 838 182 893 200 948 218 991 243 1024 276 1070 322 1106 384 1132 462 1157 539 1170 633 1170 744 1170 897 1145 1015 1095 1098 1044 1180 983 1235 911 1263 859 1283 775 1293 660 1293l-308 0z" horiz-adv-x="1479" unicode="&#x44;"/><glyph d="M162 0l0 1466 1060 0 0-173-866 0 0-449 811 0 0-172-811 0 0-499 900 0 0-173z" horiz-adv-x="1366" unicode="&#x45;"/><glyph d="M164 0l0 1466 194 0 0-602 762 0 0 602 194 0 0-1466-194 0 0 691-762 0 0-691z" horiz-adv-x="1479" unicode="&#x48;"/><glyph d="M191 0l0 1466 194 0 0-1466z" horiz-adv-x="569" unicode="&#x49;"/><glyph d="M150 0l0 1466 194 0 0-727 728 727 263 0-615-594 642-872-256 0-522 742-240-234 0-508z" horiz-adv-x="1366" unicode="&#x4b;"/><glyph d="M161 0l0 1466 650 0C942 1466 1041 1453 1109 1427 1177 1400 1231 1354 1272 1287 1313 1220 1333 1147 1333 1066 1333 962 1299 874 1232 803 1165 732 1061 686 920 667 971 642 1010 618 1037 594 1094 542 1147 477 1198 399l255-399-244 0-194 305C958 393 912 460 875 507 838 554 806 586 777 605 748 624 718 637 688 644 666 649 630 651 580 651l-225 0 0-651M355 819l417 0C861 819 930 828 980 847 1030 865 1068 894 1094 935 1120 975 1133 1019 1133 1066 1133 1135 1108 1192 1058 1237 1007 1282 928 1304 819 1304l-464 0z" horiz-adv-x="1479" unicode="&#x52;"/><glyph d="M531 0l0 1293-483 0 0 173 1162 0 0-173-485 0 0-1293z" horiz-adv-x="1251" unicode="&#x54;"/><glyph d="M828 131C761 74 697 34 636 11 574-12 508-24 437-24 320-24 231 5 168 62 105 119 74 191 74 280 74 332 86 380 110 423 133 466 164 500 203 526 241 552 284 572 332 585 367 594 421 603 492 612 637 629 744 650 813 674 814 699 814 714 814 721 814 794 797 846 763 876 717 917 649 937 558 937 473 937 411 922 371 893 330 863 300 810 281 735l-176 24C121 834 147 895 184 942 221 988 274 1024 343 1049 412 1074 493 1086 584 1086 675 1086 748 1075 805 1054 862 1033 903 1006 930 974 957 941 975 900 986 851 992 820 995 765 995 685l0-240C995 278 999 172 1007 128 1014 83 1029 41 1052 0l-188 0C845 37 833 81 828 131M813 533C748 506 650 484 519 465 445 454 393 442 362 429 331 416 308 396 291 371 274 345 266 316 266 285 266 237 284 197 321 165 357 133 410 117 480 117 549 117 611 132 665 163 719 193 759 234 784 287 803 328 813 388 813 467z" horiz-adv-x="1139" unicode="&#x61;"/><glyph d="M301 0l-167 0 0 1466 180 0 0-523C390 1038 487 1086 605 1086 670 1086 732 1073 791 1047 849 1020 897 983 935 936 972 888 1002 830 1023 763 1044 696 1055 624 1055 547 1055 365 1010 224 920 125 830 26 722-24 596-24 471-24 372 28 301 133M299 539C299 412 316 320 351 263 408 170 484 124 581 124 660 124 728 158 785 227 842 295 871 397 871 532 871 671 844 773 789 839 734 905 667 938 589 938 510 938 442 904 385 836 328 767 299 668 299 539z" horiz-adv-x="1139" unicode="&#x62;"/><glyph d="M828 389l177-23C986 244 936 149 857 80 777 11 679-24 563-24 418-24 301 24 213 119 124 214 80 350 80 527 80 642 99 742 137 828 175 914 233 979 311 1022 388 1065 473 1086 564 1086 679 1086 774 1057 847 999 920 940 967 857 988 750l-175-27C796 794 767 848 725 884 682 920 631 938 571 938 480 938 407 906 350 841 293 776 265 673 265 532 265 389 292 286 347 221 402 156 473 124 561 124 632 124 691 146 738 189 785 232 815 299 828 389z" horiz-adv-x="1024" unicode="&#x63;"/><glyph d="M824 0l0 134C757 29 658-24 527-24 442-24 365-1 294 46 223 93 168 158 129 242 90 325 70 421 70 530 70 636 88 732 123 819 158 905 211 971 282 1017 353 1063 432 1086 519 1086 583 1086 640 1073 690 1046 740 1019 781 983 812 940l0 526 179 0 0-1466M255 530C255 394 284 292 341 225 398 158 466 124 544 124 623 124 690 156 745 221 800 285 827 383 827 515 827 660 799 767 743 835 687 903 618 937 536 937 456 937 389 904 336 839 282 774 255 671 255 530z" horiz-adv-x="1139" unicode="&#x64;"/><glyph d="M862 342l186-23C1019 210 964 126 885 66 806 6 704-24 581-24 426-24 303 24 212 120 121 215 75 349 75 522 75 701 121 839 213 938 305 1037 424 1086 571 1086 713 1086 829 1038 919 941 1009 844 1054 708 1054 533 1054 522 1054 506 1053 485l-792 0C268 368 301 279 360 217 419 155 493 124 582 124 648 124 704 141 751 176 798 211 835 266 862 342M271 633l593 0C856 722 833 789 796 834 739 903 664 938 573 938 490 938 421 910 365 855 308 800 277 726 271 633z" horiz-adv-x="1139" unicode="&#x65;"/><glyph d="M178 0l0 922-159 0 0 140 159 0 0 113C178 1246 184 1299 197 1334 214 1381 245 1419 289 1448 332 1477 393 1491 472 1491 523 1491 579 1485 640 1473l-27-157C576 1323 540 1326 507 1326 452 1326 414 1314 391 1291 368 1268 357 1224 357 1160l0-98 207 0 0-140-207 0 0-922z" horiz-adv-x="569" unicode="&#x66;"/><glyph d="M136 1259l0 207 180 0 0-207M136 0l0 1062 180 0 0-1062z" horiz-adv-x="455" unicode="&#x69;"/><glyph d="M131 0l0 1466 180 0 0-1466z" horiz-adv-x="455" unicode="&#x6c;"/><glyph d="M135 0l0 1062 162 0 0-151C375 1028 488 1086 635 1086 699 1086 758 1075 812 1052 865 1029 905 998 932 961 959 924 977 879 988 828 995 795 998 736 998 653l0-653-180 0 0 646C818 719 811 774 797 811 783 847 758 876 723 898 687 919 645 930 597 930 520 930 454 906 399 857 343 808 315 716 315 580l0-580z" horiz-adv-x="1139" unicode="&#x6e;"/><glyph d="M68 531C68 728 123 873 232 968 323 1047 435 1086 566 1086 712 1086 831 1038 924 943 1017 847 1063 715 1063 546 1063 409 1043 302 1002 224 961 145 901 84 823 41 744-2 659-24 566-24 417-24 297 24 206 119 114 214 68 352 68 531M253 531C253 395 283 293 342 226 401 158 476 124 566 124 655 124 730 158 789 226 848 294 878 398 878 537 878 668 848 768 789 836 729 903 655 937 566 937 476 937 401 903 342 836 283 769 253 667 253 531z" horiz-adv-x="1139" unicode="&#x6f;"/><glyph d="M135-407l0 1469 164 0 0-138C338 978 381 1019 430 1046 479 1073 538 1086 607 1086 698 1086 778 1063 847 1016 916 969 969 904 1004 819 1039 734 1057 640 1057 539 1057 430 1038 333 999 246 960 159 903 92 829 46 754-1 676-24 594-24 534-24 480-11 433 14 385 39 346 71 315 110l0-517M298 525C298 388 326 287 381 222 436 157 503 124 582 124 662 124 731 158 788 226 845 293 873 398 873 540 873 675 845 777 790 844 734 911 667 945 590 945 513 945 446 909 387 838 328 766 298 662 298 525z" horiz-adv-x="1139" unicode="&#x70;"/><glyph d="M133 0l0 1062 162 0 0-161C336 976 375 1026 410 1050 445 1074 483 1086 525 1086 586 1086 647 1067 710 1028l-62-167C604 887 560 900 516 900 477 900 441 888 410 865 379 841 356 808 343 766 323 702 313 632 313 556l0-556z" horiz-adv-x="682" unicode="&#x72;"/><glyph d="M63 317l178 28C251 274 279 219 325 181 370 143 434 124 516 124 599 124 660 141 700 175 740 208 760 248 760 293 760 334 742 366 707 389 682 405 621 425 523 450 391 483 300 512 249 537 198 561 159 595 133 638 106 681 93 728 93 780 93 827 104 871 126 912 147 952 177 985 214 1012 242 1033 280 1050 329 1065 377 1079 429 1086 484 1086 567 1086 641 1074 704 1050 767 1026 813 994 843 953 873 912 894 857 905 788l-176-24C721 819 698 861 660 892 621 923 567 938 497 938 414 938 355 924 320 897 285 870 267 838 267 801 267 778 274 757 289 738 304 719 327 703 358 690 376 683 429 668 517 644 644 610 733 582 784 561 834 539 873 507 902 466 931 425 945 373 945 312 945 252 928 196 893 143 858 90 807 49 741 20 675-9 600-24 517-24 379-24 274 5 202 62 129 119 83 204 63 317z" horiz-adv-x="1024" unicode="&#x73;"/><glyph d="M528 161l26-159C503-9 458-14 418-14 353-14 302-4 266 17 230 38 205 65 190 99 175 132 168 203 168 311l0 611-132 0 0 140 132 0 0 263 179 108 0-371 181 0 0-140-181 0 0-621C347 250 350 217 357 202 363 187 373 176 388 167 402 158 422 154 449 154 469 154 495 156 528 161z" horiz-adv-x="569" unicode="&#x74;"/><glyph d="M331 0l-325 1062 186 0 169-613 63-228C427 232 445 305 479 440l169 622 185 0 159-616 53-203 61 205 182 614 175 0-332-1062-187 0-169 636-41 181-215-817z" horiz-adv-x="1479" unicode="&#x77;"/><glyph d="M127-409l-20 169C146-251 181-256 210-256 250-256 282-249 306-236 330-223 350-204 365-180 376-162 395-117 420-46 423-36 429-21 436-2l-403 1064 194 0 221-615C477 369 502 287 525 201 546 284 570 364 599 443l227 619 180 0-404-1080C559-135 525-215 501-259 469-318 432-362 391-389 350-417 300-431 243-431 208-431 170-424 127-409z" horiz-adv-x="1024" unicode="&#x79;"/><glyph d="M40 0l0 146 676 776C639 918 572 916 513 916l-433 0 0 146 868 0 0-119-575-674-111-123C343 152 418 155 489 155l491 0 0-155z" horiz-adv-x="1024" unicode="&#x7a;"/></font><font horiz-adv-x="2048"><font-face underline-position="-150" underline-thickness="100" units-per-em="2048"/><missing-glyph d="M808 0l-708 0 0 1456 708 0M754 84l0 1287-274-643M154 1359l0-1263 268 632M194 54l515 0-258 606M451 796l258 606-515 0z" horiz-adv-x="908"/><glyph horiz-adv-x="510" unicode="&#x20;"/><glyph d="M128 592C128 746 149 892 190 1031 231 1169 292 1293 372 1402 452 1511 537 1587 626 1631l48-142C580 1418 504 1309 446 1163 387 1016 355 849 350 660l-1-86C349 372 378 192 435 34 492-125 571-245 674-328l-48-135C537-419 452-342 372-232 291-123 231 1 190 139 149 276 128 427 128 592z" horiz-adv-x="714" unicode="&#x28;"/><glyph d="M593 576C593 428 573 285 532 148 491 10 430-115 347-228 264-341 178-420 88-463l-48 135C140-251 219-132 278 27 336 186 365 367 365 571l0 23C365 779 340 948 289 1101 238 1253 166 1375 71 1467l-31 28 48 136C173 1590 256 1516 336 1411 416 1306 477 1188 520 1058 563 927 587 793 592 654z" horiz-adv-x="722" unicode="&#x29;"/><glyph d="M276 256C321 256 356 243 381 218 406 192 418 160 418 121 418 83 406 52 381 27 356 2 321-11 276-11 233-11 198 1 173 26 148 51 135 82 135 121 135 160 147 192 172 218 197 243 231 256 276 256z" horiz-adv-x="572" unicode="&#x2e;"/><glyph d="M1058 613C1058 404 1019 246 941 140 862 33 743-20 583-20 426-20 307 32 228 136 148 239 107 393 105 596l0 252C105 1057 144 1214 223 1319 301 1424 420 1476 581 1476 740 1476 859 1425 938 1323 1016 1221 1056 1068 1058 865M815 885C815 1022 796 1122 759 1186 722 1249 662 1281 581 1281 502 1281 443 1251 406 1191 369 1130 349 1036 347 908l0-330C347 442 366 341 404 274 442 207 502 174 583 174 661 174 719 205 756 267 793 328 813 425 815 556z" horiz-adv-x="1164" unicode="&#x30;"/><glyph d="M1088 0l-979 0 0 167 485 529C664 774 714 839 744 892 773 944 788 996 788 1049 788 1118 769 1174 730 1217 691 1260 638 1281 572 1281 493 1281 432 1257 389 1209 346 1161 324 1095 324 1012l-243 0C81 1101 101 1181 142 1252 182 1323 240 1378 315 1417 390 1456 476 1476 574 1476 715 1476 827 1441 909 1370 990 1299 1031 1200 1031 1075 1031 1002 1011 926 970 847 929 767 861 676 768 575l-356-381 676 0z" horiz-adv-x="1164" unicode="&#x32;"/><glyph d="M1026 1072C1026 1001 1008 937 971 882 934 826 884 782 821 750 897 715 956 666 997 605 1038 544 1058 474 1058 397 1058 269 1015 168 928 93 841 18 726-20 582-20 437-20 322 18 235 93 148 168 104 270 104 397 104 475 125 545 166 607 207 669 265 717 340 750 277 782 228 826 192 882 155 937 137 1001 137 1072 137 1196 177 1294 257 1367 337 1440 445 1476 581 1476 718 1476 826 1440 906 1367 986 1294 1026 1196 1026 1072M815 409C815 481 794 539 751 584 708 628 651 650 580 650 509 650 453 628 411 584 368 540 347 482 347 409 347 338 368 281 410 238 451 195 509 174 582 174 655 174 713 195 754 236 795 277 815 335 815 409M784 1063C784 1126 766 1179 729 1220 692 1261 643 1281 581 1281 519 1281 470 1262 434 1223 398 1184 380 1130 380 1063 380 996 398 943 435 904 471 865 520 845 582 845 644 845 693 865 730 904 766 943 784 996 784 1063z" horiz-adv-x="1164" unicode="&#x38;"/><glyph d="M1007 780l-862 0 0 202 862 0M1007 356l-862 0 0 201 862 0z" horiz-adv-x="1146" unicode="&#x3d;"/><glyph d="M401 202l661 0 0-202-914 0 0 1456 253 0z" horiz-adv-x="1108" unicode="&#x4c;"/><glyph d="M683 561l-282 0 0-561-253 0 0 1456 512 0C828 1456 958 1418 1049 1343 1140 1268 1186 1159 1186 1016 1186 919 1163 837 1116 772 1069 706 1003 655 919 620l327-607 0-13-271 0M401 764l260 0C746 764 813 786 861 829 909 872 933 930 933 1005 933 1083 911 1143 867 1186 822 1229 756 1251 668 1252l-267 0z" horiz-adv-x="1278" unicode="&#x52;"/><glyph d="M1213 1456l0-973C1213 328 1164 206 1065 116 966 25 834-20 669-20 502-20 370 25 272 114 174 203 125 326 125 484l0 972 252 0 0-974C377 385 402 310 451 259 500 208 573 182 669 182 864 182 961 285 961 490l0 966z" horiz-adv-x="1335" unicode="&#x55;"/><glyph d="M1290 360l224 1096 251 0-336-1456-242 0-277 1063-283-1063-243 0-336 1456 251 0 226-1094 278 1094 212 0z" horiz-adv-x="1802" unicode="&#x57;"/><glyph d="M386 202l778 0 0-202-1084 0 0 164 753 1088-748 0 0 204 1055 0 0-160z" horiz-adv-x="1233" unicode="&#x5a;"/><glyph d="M569 174C630 174 680 192 720 227 760 262 781 306 784 358l229 0C1010 291 989 228 950 170 911 111 857 65 790 31 723-3 650-20 572-20 421-20 301 29 212 127 123 225 79 360 79 533l0 25C79 723 123 855 211 954 299 1053 419 1102 571 1102 700 1102 805 1065 886 990 967 915 1009 816 1013 694l-229 0C781 756 760 807 721 847 681 887 630 907 569 907 490 907 430 879 387 822 344 765 323 678 322 562l0-39C322 406 343 318 386 261 428 203 489 174 569 174z" horiz-adv-x="1072" unicode="&#x63;"/><glyph d="M601-20C447-20 322 29 227 126 131 223 83 352 83 513l0 30C83 651 104 748 146 833 187 918 246 984 321 1031 396 1078 480 1102 573 1102 720 1102 834 1055 915 961 995 867 1035 734 1035 562l0-98-707 0C335 375 365 304 418 252 470 200 536 174 615 174 726 174 817 219 887 309l131-125C975 119 917 69 845 34 772-2 691-20 601-20M572 907C505 907 452 884 411 837 370 790 343 725 332 642l463 0 0 18C790 741 768 803 730 845 692 886 639 907 572 907z" horiz-adv-x="1099" unicode="&#x65;"/><glyph d="M383 0l-243 0 0 1082 243 0M125 1363C125 1400 137 1431 161 1456 184 1481 218 1493 262 1493 306 1493 340 1481 364 1456 388 1431 400 1400 400 1363 400 1326 388 1296 364 1272 340 1247 306 1235 262 1235 218 1235 184 1247 161 1272 137 1296 125 1326 125 1363z" horiz-adv-x="523" unicode="&#x69;"/><glyph d="M383 0l-243 0 0 1536 243 0z" horiz-adv-x="523" unicode="&#x6c;"/><glyph d="M353 1082l7-113C436 1058 540 1102 672 1102 817 1102 916 1047 969 936 1048 1047 1158 1102 1301 1102 1420 1102 1509 1069 1568 1003 1626 937 1656 840 1657 711l0-711-243 0 0 704C1414 773 1399 823 1369 855 1339 887 1289 903 1220 903 1165 903 1120 888 1085 859 1050 829 1025 790 1011 742l1-742-243 0 0 712C766 839 701 903 574 903 477 903 408 863 367 784l0-784-243 0 0 1082z" horiz-adv-x="1782" unicode="&#x6d;"/><glyph d="M350 1082l7-125C437 1054 542 1102 672 1102 897 1102 1012 973 1016 715l0-715-243 0 0 701C773 770 758 821 729 854 699 887 650 903 583 903 485 903 412 859 364 770l0-770-243 0 0 1082z" horiz-adv-x="1139" unicode="&#x6e;"/><glyph d="M731 294C731 337 713 370 678 393 642 416 583 436 500 453 417 470 348 492 293 519 172 578 111 663 111 774 111 867 150 945 229 1008 308 1071 408 1102 529 1102 658 1102 763 1070 843 1006 922 942 962 859 962 757l-243 0C719 804 702 843 667 874 632 905 586 920 529 920 476 920 432 908 399 883 365 858 348 825 348 784 348 747 364 718 395 697 426 676 490 656 585 635 680 614 755 589 810 560 864 531 904 496 931 455 957 414 970 365 970 307 970 210 930 131 849 71 768 10 663-20 532-20 443-20 364-4 295 28 226 60 172 104 133 160 94 216 75 276 75 341l236 0C314 284 336 240 376 209 416 178 469 162 535 162 599 162 648 174 681 199 714 223 731 255 731 294z" horiz-adv-x="1057" unicode="&#x73;"/><glyph d="M780 106C709 22 607-20 476-20 359-20 270 14 210 83 149 152 119 251 119 381l0 701 243 0 0-698C362 247 419 178 533 178 651 178 731 220 772 305l0 777 243 0 0-1082-229 0z" horiz-adv-x="1138" unicode="&#x75;"/><glyph d="M175 1024l-124 77C111 1188 142 1281 144 1378l0 158 213 0 0-138C357 1329 340 1260 305 1191 270 1121 226 1065 175 1024z" horiz-adv-x="444" unicode="&#x2019;"/></font><font horiz-adv-x="2048"><font-face underline-position="-150" underline-thickness="100" units-per-em="2048"/><missing-glyph d="M699 0l-595 0 0 1456 595 0M653 86l0 1284-229-642M149 1361l0-1267 226 634M183 54l432 0-216 605M399 796l216 606-432 0z" horiz-adv-x="803"/><glyph d="M134-290l-105 72C92-131 124-41 127 52l0 167 181 0 0-145C308 7 292-61 259-128 226-195 184-249 134-290z" horiz-adv-x="402" unicode="&#x2c;"/><glyph d="M895 621C895 406 864 246 801 140 738 33 640-20 506-20 376-20 279 31 215 133 151 235 118 388 115 593l0 250C115 1056 147 1214 210 1319 273 1424 371 1476 504 1476 635 1476 733 1426 796 1327 859 1228 892 1077 895 876M718 874C718 1028 701 1142 667 1215 633 1288 579 1324 504 1324 431 1324 378 1288 344 1217 310 1145 292 1037 291 892l0-300C291 439 309 324 344 247 379 170 433 131 506 131 578 131 631 167 665 240 699 313 717 424 718 573z" horiz-adv-x="1011" unicode="&#x30;"/><glyph d="M644 0l-178 0 0 1233-306-137 0 168 456 199 28 0z" horiz-adv-x="1011" unicode="&#x31;"/><glyph d="M189 730l63 726 633 0 0-171-484 0-34-397C427 930 492 951 561 951 674 951 763 907 828 819 893 731 925 613 925 464 925 313 890 195 820 109 749 23 653-20 530-20 421-20 332 16 263 87 194 158 155 257 145 383l166 0C321 300 345 237 383 195 420 152 469 131 530 131 599 131 652 161 691 221 730 280 749 361 749 462 749 557 728 635 687 695 645 755 589 785 518 785 459 785 412 770 377 739l-47-47z" horiz-adv-x="1011" unicode="&#x35;"/></font><font horiz-adv-x="2048"><font-face underline-position="-150" underline-thickness="100" units-per-em="2048"/><missing-glyph d="M808 0l-708 0 0 1456 708 0M754 84l0 1287-274-643M154 1359l0-1263 268 632M194 54l515 0-258 606M451 796l258 606-515 0z" horiz-adv-x="908"/><glyph horiz-adv-x="507" unicode="&#x20;"/><glyph d="M729 0l-186 0 0 1233-373-137 0 168 530 199 29 0z" horiz-adv-x="1150" unicode="&#x31;"/><glyph d="M169 0l0 1456 476 0C803 1456 922 1423 1002 1358 1081 1293 1121 1196 1121 1068 1121 1000 1102 940 1063 888 1024 835 972 795 905 766 984 744 1046 702 1092 641 1137 579 1160 505 1160 420 1160 289 1118 187 1033 112 948 37 829 0 674 0M361 681l0-524 317 0C767 157 838 180 890 227 941 273 967 337 967 418 967 593 872 681 681 681M361 835l290 0C735 835 802 856 853 898 903 940 928 997 928 1069 928 1149 905 1207 858 1244 811 1280 740 1298 645 1298l-284 0z" horiz-adv-x="1275" unicode="&#x42;"/><glyph d="M1240 462C1222 308 1165 189 1070 106 974 22 847-20 688-20 516-20 378 42 275 165 171 288 119 453 119 660l0 140C119 935 143 1054 192 1157 240 1260 308 1339 397 1394 486 1449 588 1476 705 1476 860 1476 984 1433 1077 1347 1170 1260 1225 1141 1240 988l-193 0C1030 1104 994 1188 939 1240 883 1292 805 1318 705 1318 582 1318 486 1273 417 1182 347 1091 312 962 312 795l0-141C312 496 345 370 411 277 477 184 569 137 688 137 795 137 877 161 934 210 991 258 1028 342 1047 462z" horiz-adv-x="1333" unicode="&#x43;"/><glyph d="M992 673l-631 0 0-516 733 0 0-157-925 0 0 1456 915 0 0-158-723 0 0-468 631 0z" horiz-adv-x="1164" unicode="&#x45;"/><glyph d="M417 1456l476-1188 476 1188 249 0 0-1456-192 0 0 567 18 612-478-1179-147 0-477 1176 19-609 0-567-192 0 0 1456z" horiz-adv-x="1788" unicode="&#x4d;"/><glyph d="M1175 1298l-468 0 0-1298-191 0 0 1298-467 0 0 158 1126 0z" horiz-adv-x="1222" unicode="&#x54;"/><glyph d="M95 550C95 716 134 850 213 951 292 1052 395 1102 522 1102 649 1102 749 1059 823 972l0 564 185 0 0-1536-170 0-9 116C755 25 652-20 520-20 395-20 293 31 214 134 135 237 95 371 95 536M280 529C280 406 305 310 356 241 407 172 477 137 566 137 683 137 769 190 823 295l0 497C768 894 683 945 568 945 477 945 407 910 356 840 305 770 280 666 280 529z" horiz-adv-x="1155" unicode="&#x64;"/><glyph d="M341 0l-185 0 0 1536 185 0z" horiz-adv-x="497" unicode="&#x6c;"/><glyph d="M315 1082l6-136C404 1050 512 1102 645 1102 874 1102 989 973 991 715l0-715-185 0 0 716C805 794 788 852 753 889 718 926 663 945 589 945 529 945 476 929 431 897 386 865 350 823 325 771l0-771-185 0 0 1082z" horiz-adv-x="1130" unicode="&#x6e;"/><glyph d="M91 551C91 657 112 752 154 837 195 922 253 987 328 1033 402 1079 487 1102 582 1102 729 1102 849 1051 940 949 1031 847 1076 711 1076 542l0-13C1076 424 1056 329 1016 246 975 162 918 97 843 50 768 3 681-20 584-20 437-20 319 31 228 133 137 235 91 370 91 538M277 529C277 409 305 313 361 240 416 167 491 131 584 131 678 131 753 168 808 242 863 315 891 418 891 551 891 670 863 766 807 840 750 913 675 950 582 950 491 950 417 914 361 841 305 768 277 664 277 529z" horiz-adv-x="1168" unicode="&#x6f;"/><glyph d="M663 916C635 921 605 923 572 923 451 923 368 871 325 768l0-768-185 0 0 1082 180 0 3-125C384 1054 470 1102 581 1102 617 1102 644 1097 663 1088z" horiz-adv-x="693" unicode="&#x72;"/><glyph d="M391 1344l0-262 202 0 0-143-202 0 0-671C391 225 400 192 418 171 436 149 467 138 510 138 531 138 561 142 598 150l0-150C549-13 502-20 456-20 373-20 311 5 269 55 227 105 206 176 206 268l0 671-197 0 0 143 197 0 0 262z" horiz-adv-x="669" unicode="&#x74;"/><glyph d="M339 1082l0-633C340 340 357 260 392 208 426 156 482 130 559 130 692 130 779 181 820 282l0 800 186 0 0-1082-167 0-9 115C768 25 680-20 567-20 469-20 393 4 339 53l0-469-185 0 0 1498z" horiz-adv-x="1160" unicode="&#xB5;"/></font>
</svg>
